[非关命运]Fateless.2005.BluRay.720p.AC3.x264-CnSCG[中英字幕/2.8G] – 720P高清电影_圣城家园_高清电影下载_720p高清

【胶片原始名】Fateless

【国文译名】非关命运/命运无常

[结果年份]2005 年

[排放日期]2005年2月8日 匈牙利         

[影片阶层]美国:R

[官方网站]

[imdb联系在一起]

[IMDB得分] (2,842 开票)

【国  家】匈牙利/德国/英国

【类  别】剧情

【胶片浆糊】140 Mins

【独白空话】匈牙利语/英语/德语/依地语/希伯来人的语/波兰语

[导演]金光小道 Lajos Koltai

【主  演】Marcell Nagy Gy?RGY K?可变的杰作转向

      丹尼尔·克雷格 Daniel Craig….US Army Sergeant

      Béla Dóra ….Smoker

      Bálint Péntek ….Pretty boy

      áron Dimény ….Bandi Citrom

      Péter Fancsikai ….Older Kollmann boy

      Z螺栓 Dér ….Rozi

      András M. Kecskés ….Finn

      Dani Szabó ….Moskovich

      Tibor Mertz ….Fodor

      Péter Vida ….Lénárt

      Endre Harkányi ….Old Kollmann

      Márton Brezina ….Younger Kollmann boy

      Zoltán Bukovszki ….Zoli

      Gábor Nyiri ….Hedge

[质地引见]

  重新安排自诺贝尔迪伦汤玛士文学奖拉皮条者因扎卡特斯,发生着的一名匈牙利犹太男孩被关进纳粹集中营的深入经验。卡维是个愉快地的雏鸟,快的间,纳粹占据了他的家用的。,开端燃烧、强奸和掠取犹太居住者,他的有精神的一夜之间换衣服了。,突如其来,卡维使适宜一体作呕的这种偏袒的薪水。,尤静止从未对某人找岔子本身是犹太人。,再,接连地的打击加强他面临实际的。,他的发明被纳粹绑票了,卡维本身也曾经踏入了尘土。,被送往集中营收到残忍的薪水,在哪里,有精神的是超绝的目的。

  卡维卒渡过了差不多紧要关头。,美国陆军的营救回复了自在。依然连衣裙俘虏的条纹,卡尔夫刻不容缓地想跑回他的故乡。,场景邻接的冰冷,老朋友劝他忘却完全地,开端,集中营是追赶入洞穴上的炼狱云,卡维听腻了这些使适宜一体劝慰的老生常谈。,单独地在夜深人静的时分,咱们才干使高雅出东西谜。

  这部影片描绘了在,有疾苦和艳丽的。。凯维从膝下无罪的人的视角看尘世,无先入为主的斜纹,我觉得无什么成绩。。几近因咱们不做道德观过失,这部影片的稳定的进程更为喷出。听众注意的不只仅是残忍的暴行。,无必要思索暴行。。违法行为人和受骗者都有烦恼。。卡尔特斯的意义是,依从地有精神的。奥斯韦尔可能是住所名称辛集中营的罪犯,就像人类的日常有精神的俱。

静止引见

  2月15日,大量的注目的大搏斗题材流动片《命运无常》(Fateless)在柏林影片节放映。

  《命运无常》表示集中营心路历程

  念心儿自在主义者60周年的,匈牙利影片易变的是最近的分支影片的结局。。这部影片是基金2002年得奖笔重新安排的。 凯尔·塔齐亚歧义虚构的或想像出的事重新安排,发生着的东西在纳粹集中营的男孩,包孕李莉的有精神的经验。。凯尔泰斯自己被收押在纳粹集中营,命运的无把握、不确定的事物和谐了作者的特性,它也无夸张大搏斗的丑陋的性。,在发表施政方针描绘了医管局的特别时间。《急躁》是乔斯·科尔导演的弗戈镍铬钨系合金钢。,主人公由14岁的匈牙利雏鸟充当,剧本、广播稿或者电影剧本是Kyle Tarzia本身重新安排的。。

  影片拍摄当天,凯尔·塔齐亚在一次叩问中说,他本身重新安排剧本、广播稿或者电影剧本的推理,转移影片制片人诬蔑标示于图表上。他说,他岂敢把这部影片拍成交易片,因我本身也经验大于正常搏斗。,我不能用这么主观来哄动。。论影片的主观,凯尔泰兹说道,这不是政治组织片。,是发生着的灵魂生长的途径。,考虑东西人怎样适宜东西数字。

  General
Complete name : F:顺序 Files\遏制\原因\非关命运Fateless.2005.BluRay.720p.AC3.x264-CnSCG.mkv
Format : Matroska
File size : 2.15 GiB
Duration : 2h 20mn
Overall bit rate : 2 195 Kbps
Encoded date : UTC 2010-08-29 05:38:25
Writing application : mkvmerge v2.2.0 (转弯 It On 再说') built on 3月4日 2008 12:58:26
Writing library : libebml v0.7.7 + libmatroska v0.8.1
Video #1
ID : 1
Format : AVC
Format/Info : Advanced Video Codec
Format profile : High@L4.1
Format settings, CABAC : Yes
Format settings, ReFrames : 4 frames
Muxing mode : Container profile=Unknown@4.1
Codec ID : V_MPEG4/ISO/AVC
Duration : 2h 20mn
Bit rate : 1 703 Kbps
Nominal bit rate : 2 406 Kbps
Width : 1 280 pixels
Height : 720 pixels
Display aspect ratio : 16:9
Frame rate : 24.000 fps
Resolution : 8 bits
Colorimetry : 4:2:0
Scan type : Progressive
Bits/(Pixel*Frame) : 0.077
Stream size : 1.67 GiB (78%)
Writing library : x264 core 98 r1649 c54c47d
Encoding settings : cabac=1 / ref=3 / deblock=1:-3:-2 / analyse=0x3:0x113 / me=umh / subme=8 / psy=1 / psy_rd=1.00:0.00 / mixed_ref=0 / me_range=32 / chroma_me=1 / trellis=2 / 8x8dct=1 / cqm=0 / deadzone=21,11 / fast_pskip=0 / chroma_qp_offset=-2 / threads=6 / sliced_threads=0 / nr=0 / decimate=0 / interlaced=0 / constrained_intra=0 / bframes=8 / b_pyramid=2 / b_adapt=2 / b_bias=0 / direct=1 / weightb=1 / weightp=2 / keyint=250 / keyint_min=25 / scenecut=40 / intra_refresh=0 / rc_lookahead=40 / rc=2pass / mbtree=1 / bitrate=2406 / ratetol=1.0 / qcomp=0.60 / qpmin=10 / qpmax=51 / qpstep=4 / cplxblur=20.0 / qblur=0.5 / ip_ratio=1.40 / aq=2:1.00
Language : English
Audio #2
ID : 2
Format : AC-3
Format/Info : Audio Coding 3
Codec ID : A_AC3
Duration : 2h 20mn
Bit rate mode : Constant
Bit rate : 448 Kbps
穿堂(S) : 6 channels
Channel positions : Front: L C R, Surround: L R, LFE
Sampling rate : 48.0 KHz
Stream size : 449 MiB (20%)
Text #3
ID : 3
Format : SSA
Codec ID : S_TEXT/SSA
Codec ID/Info : Sub Station Alpha
Title : 中上英下
Text #4
ID : 4
Format : SSA
Codec ID : S_TEXT/SSA
Codec ID/Info : Sub Station Alpha
Title : 英上中下
Text #5
ID : 5
Format : SSA
Codec ID : S_TEXT/SSA
Codec ID/Info : Sub Station Alpha
Title : 国文
Text #6
ID : 6
Format : SSA
Codec ID : S_TEXT/SSA
Codec ID/Info : Sub Station Alpha
Title : 英文

下载地址

发表评论